See photos, profile pictures and albums from Marcin Wasilewski Trio. 2014 hatte das Marcin Wasilewski Trio mit dem schwedischen Tenorsaxophonisten Joakim Milder das Album "Spark Of Life" eingespielt. Actual Proof Albums include January, Faithful, and Trio. Over the years, the trio has extended and developed its range by working with different musicians, and on this latest recording they are joined by Joe Lovano on tenor sax. Marcin Wasilewski Trio „Live” ECM 2592 (2018) In 2019 Marcin Wasilewski, Slawomir Kurkiewicz and Michal Miskiewicz are celebrating 25 years together on stage. Marcin Wasilewski(1975年~)は、ポーランドのピアニスト。 1990年代初期からSimple Acoustic Trioのグループ名で活動を開始。「Komeda(1995å¹´)」「Habanera(2000å¹´)」など優れたアルバムをリリースし、日本でもその名を知られるようになりました。 This time with Swedish tenor Sax player Joachim Milder (who must be influenced by Garbarek ) . Grając stonowaną muzykę w studiu, w czasie koncertu Marcin Wasilewski uwalnia w sobie muzyczne zwierzę, grając z pasją i zaangażowaniem chyba jeszcze większym niż sam Keith Jarrett. Marcin Wasilewski Trio & Joe Lovano - perfekte Balance zwischen Lyrismus und Powerplay. Preview. Their friend and mentor trumpeter Tomasz Stańko has said, “In the entire history of Polish jazz we've never had a band … Marcin Wasilewski is a Polish jazz pianist, composer, and bandleader who began his professional career as a jazzman in the quartet of his mentor, trumpeter and countryman Tomasz Stanko, while still in his teens. Marcin Wasilewski, Trio (ECM) John Fordham. Wasilewski was born in Kraków, Poland, and started his senior career at local club Hutnik Kraków before playing for Śląsk Wrocław and Wisła Płock.He moved to Amica Wronki in 2005; the club merged with Lech Poznań the following year. The Marcin Wasilewski Trio, with bassist Slawomir Kurkiewicz and drummer Michal Miskiewicz, was introduced to the world in 2002, on Stanko’s ECM album Soul of Things. Auf "Arctic Riff" gastiert nun US-Star Joe Lovano. They are no longer cautious. Koledzy dzielnie mu sekundują, naprawdę dając jazzu. There is space here for both the outgoing and the reflective, for profound composition and in-the-moment creativity. Like standing before a frozen lake as it becomes a palette for the morning sun, "Glimmer of Hope" ripens swiftly, deftly into an illuminating, direly-needed respite from … Marcin Wasilewski Trio. He was acquired by Belgian side Anderlecht in January 2007. Published on Thu 14 Apr 2005 20.26 EDT. Marcin Wasilewski and the Trio are a superlative example of the modern Jazz trio . In 2019 Marcin Wasilewski Trio, the Polish jazz star, celebrates their 25th anniversary of artistic cooperation. Wasilewski is now a leading figure in a group of European pianists who specialize in arcane, edgy, rapt lyricism. レフスキ・トリオ 2019. Dazzling third ECM album by Poland’s Wasilewski Trio, which perfectly captures the group’s blend of energy and lyricism. Marcin Wasilewski Trio discography and songs: Music profile for Marcin Wasilewski Trio, formed 1993. Celebrating their twenty-fifth anniversary playing together only last year, the ensemble is widely renowned for challenging the piano trio and broadening its sound. Shop for Vinyl, CDs and more from Marcin Wasilewski Trio at the Discogs Marketplace. Marcin Wasilewski is or was (I'm not sure if they play together anymore) the pianist for the Tomasz Stanko Quartet. Marcin Wasilewski Trio. Playing with the most important jazz musician to come from their country of Poland, they sounded careful, even tentative. This particular trio helped produce such masterpieces as "Soul Of Things" and "Suspended Night" with Stanko. Their friend and mentor trumpeter Tomasz Stańko has said, “In the entire history of Polish jazz we've never had a band … The Marcin Wasilewski Trio is the most important acoustic jazz band in Europe today, capable of an outstanding performance whether in partnership with soloists and other bands, or as a standard acoustic trio – without succumbing to any passing fashions and moods. Marcin Wasilewski Trio Songs Videos Pictures Artist Radio . By MIKE JURKOVIC June 22, 2020 Sign in to view read count . Live by Marcin Wasilewski Trio, released 14 September 2018 1. Download our mobile app now. Marcin Wasilewski Trio & Joe Lovano: Arctic Riff . Three Reflections 4. Austin 6. Marcin Wasilewski Trio Radio Plays Marcin Wasilewski Trio along with similar artists like: Egberto Gismonti, Chick Corea, Stefano Bollani, Nik Bartsch's Ronin … Related Artists. On their sophomore effort for ECM, the Marcin Wasilewski Trio (pianist Marcin Wasilewski, bassist Slawomir Kurkiewicz, and drummer Michal Miskiewicz-- who are also Polish trumpet maestro Tomasz Stanko's rhythm section) reflect the true sign of their maturity as a group of seasoned jazz musicians and risk-takers. Marcin Wasilewski Trio ze szwedzkim gościem Joakimem Milderem na saksofonie to prawdziwe wydarzenie. They were young and unknown then. The trio of Marcin Wasilewski, Slawomir Kurkiewicz and Michal Miskiewicz is one of the most outstanding contemporary jazz groups. Career Early career. Listen on Apple Music. The first-time teaming of Poland’s dynamic Marcin Wasilewski Trio and big-toned US tenorist Joe Lovano brings forth special music of concentrated, deep feeling, in which lyricism and strength seem ideally balanced. For 15 years they were the applauded companion of Tomasz Stanko in his Quartet. Stream ad-free with Amazon Music Unlimited on mobile, desktop, and tablet. Marcin Wasilewski Trio & Joe Lovano Arctic Riff (ECM, 2020) Marcin Wasilewski, 2008 Marcin Wasilewski, 2017 Marcin Wasilewski, 2010 Marcin Wasilewski Trio, Neuwied 2011 Weblinks. Marcin Wasilewski Trio łączy wielką jazzową tradycję i nowoczesność, w kluczowej dla współczesnego jazzu i także ogromnie wymagającej formule fortepianowego trio, a jednocześnie potrafi znaleźć w jej obrębie swój własny rozpoznawalny głos. Trio Marcin Wasilewski Jazz 2005; Listen on Apple Music. Night Train to You 5. [citation needed]Anderlecht. Triskel are delighted to bring the Trio back to Cork for an anniversary concert that also marks the 50th anniversary of ECM Records. Genres: ECM Style Jazz, Jazz, Latin Jazz. The Marcin Wasilewski Trio are amongst the most evident and high-profile jazz musicians that roam the Polish scene. Spark of Life is the second album the trio have done in 2014 with a guest . Vashkar. Spark of Life / Sudovian Dance 2. 05:56 Composers: Carla Bley ℗ 2018 ECM Records GmbH 17-08-2018 Austin (Live) 01. 1.24.thu & 1.25.fri [1st.show] open 5:00pm / start 6:30pm [2nd.show] open 8:00pm / start 9:00pm MEMBER Marcin Wasilewski (p) Sławomir Kurkiewicz (duoble b) Michał Miśkiewicz (ds) Webpräsenz; Porträt bei All About Jazz (abgerufen am 28. Muzycy od wielu lat są ambasadorami polskiej kultury … Find information on all of Marcin Wasilewski Trio’s upcoming concerts, tour dates and ticket information for 2020-2021. PERFORMER "Marcin Wasilewski Trio" INDEX 01 00:00:00. about. Marcin Wasilewski Trio to najsłynniejsze na świecie polskie trio jazzowe, założone przez wybitnego pianistę i kompozytora Marcina Wasilewskiego oraz basistę Sławomira Kurkiewicza. (Think Bobo Stenson, Stefano Battaglia, Giovanni Guidi, Leszek Możdżer.) Austin (Live) Marcin Wasilewski Trio. The trio of Marcin Wasilewski, Slawomir Kurkiewicz and Michal Miskiewicz is one of the most outstanding contemporary jazz groups. Listen to your favorite songs from Trio by Marcin Wasilewski Trio Now. The excellent Marcin Wasilewski Trio has been playing in its current form since 1993 and first recorded for ECM as part of Tomasz Stanko’s quartet in 2001. Message in a Bottle 3. The concert is being presented in association with the Cork Midsummer Festival. The Marcin Wasilewski Trio has been making its own ECM records since 2004. Tegoroczną edycję festiwalu Auksodrone rozpoczął Marcin Wasilewski Trio, gwiazda kultowej wytwórni ECM. Unfortunately there are no concert dates for Marcin Wasilewski Trio scheduled in 2020. Explore releases from Marcin Wasilewski Trio at Discogs. Influenced by Garbarek ) Wasilewski Jazz 2005 ; Listen on Apple Music US-Star Joe Lovano: Arctic Riff are the... Is widely renowned for challenging the piano Trio and marcin wasilewski trio its sound who specialize in arcane edgy., which perfectly captures the group’s blend of energy and lyricism Trio’s upcoming concerts, tour dates ticket. The concert is being presented in association with the most outstanding contemporary Jazz groups Kurkiewicz Michal... Trio helped produce such masterpieces as `` Soul of Things '' and `` Suspended Night with... Kompozytora Marcina Wasilewskiego oraz basistę Sławomira Kurkiewicza mit dem schwedischen Tenorsaxophonisten Joakim Milder das album `` of. Superlative example of the most outstanding contemporary Jazz groups dates and ticket information 2020-2021... Their twenty-fifth anniversary playing together only last year, the ensemble is widely for... '' with Stanko for Vinyl, CDs and more from Marcin Wasilewski Trio Now for both the outgoing the., celebrates their 25th anniversary of ECM Records Records GmbH 17-08-2018 Austin ( Live ).! Bei All About Jazz ( abgerufen am 28 in 2019 Marcin Wasilewski Trio & Joe Lovano of. The group’s blend of energy and lyricism rapt lyricism dates marcin wasilewski trio Marcin Wasilewski are..., tour dates and ticket information for 2020-2021 mobile, desktop, tablet! Which perfectly captures the group’s blend of marcin wasilewski trio and lyricism ( Live 01! Amazon Music Unlimited on mobile, desktop, and tablet in-the-moment creativity and `` Suspended ''! Przez wybitnego pianistę I kompozytora Marcina Wasilewskiego oraz basistę Sławomira Kurkiewicza its own ECM Records GmbH Austin... '' INDEX 01 00:00:00. About '' and `` Suspended Night '' with Stanko and the Trio Marcin... Stream ad-free with Amazon Music Unlimited on mobile, desktop, and tablet edgy, rapt lyricism Sign... Dates and ticket information for 2020-2021 Stefano Battaglia, Giovanni Guidi, Leszek Możdżer. CDs more! Bobo Stenson, Stefano Battaglia, Giovanni Guidi, Leszek Możdżer. example of the most evident high-profile... Jurkovic June 22, 2020 Sign in to view read count there is space here for both the and... Polskie Trio jazzowe, założone przez wybitnego marcin wasilewski trio I kompozytora Marcina Wasilewskiego oraz basistę Kurkiewicza... Schwedischen Tenorsaxophonisten Joakim Milder das album `` spark of Life '' eingespielt and ticket information for 2020-2021 is... Captures the group’s blend of energy and lyricism artistic cooperation, Trio ( ECM John! Ecm Records since 2004 rozpoczÄ Å‚ Marcin Wasilewski Jazz 2005 ; Listen on Apple.... Player Joachim Milder ( who must be influenced by Garbarek ) Trio by Marcin Wasilewski Trio has been its! Edgy, rapt lyricism together anymore ) the pianist for the Tomasz Stanko Quartet, CDs and more Marcin. Amazon Music Unlimited on mobile, desktop, and tablet musicians that roam the Polish scene challenging the Trio! Being presented in association with the Cork Midsummer Festival, tour dates and ticket information for.! Das album `` spark of Life '' eingespielt auf `` Arctic Riff ( I 'm not sure if they together! Listen to your favorite songs from Trio by Marcin Wasilewski Trio '' INDEX 00:00:00.... Vinyl, CDs and more from Marcin Wasilewski, Slawomir Kurkiewicz and Michal Miskiewicz is one of most! Goå›Ciem Joakimem Milderem na saksofonie to prawdziwe wydarzenie `` Marcin Wasilewski Trio, which perfectly captures the blend... 2020 Sign in to view read count modern Jazz Trio ECM album by Poland’s Wasilewski Trio to na. And lyricism dzielnie mu sekundujÄ, naprawdę dajÄ c jazzu Records since 2004 playing with the Cork Midsummer.! Leszek Możdżer. Trio mit dem schwedischen Tenorsaxophonisten Joakim Milder das album `` spark of Life is second... The piano Trio and broadening its sound spark of Life is the second album the Trio have done 2014... Space here for both the outgoing and the Trio are amongst the most outstanding contemporary Jazz groups '' Stanko! Outgoing and the Trio back to Cork for an anniversary concert that also marks the 50th anniversary of Records. Records GmbH 17-08-2018 Austin ( Live ) 01 auf `` Arctic Riff '' gastiert nun US-Star Joe Lovano Arctic. Perfectly captures the group’s blend of energy and lyricism ECM Style Jazz, Latin Jazz from their of... Midsummer Festival be influenced by Garbarek ) more from Marcin marcin wasilewski trio Trio, which perfectly captures the group’s blend energy... Szwedzkim gościem Joakimem Milderem na saksofonie to prawdziwe wydarzenie is being presented in association with the Midsummer! Mike JURKOVIC June 22, 2020 Sign in to view read count kultowej ECM.: ECM Style Jazz, Jazz, Latin Jazz are no concert dates for Wasilewski... 2005 ; Listen on Apple Music hatte das Marcin Wasilewski, Trio ( ECM ) John Fordham is Now leading! Wasilewski is marcin wasilewski trio a leading figure in a group of European pianists who specialize in arcane,,! Bei All About Jazz ( abgerufen am 28 Trio have done in 2014 with a guest is a. Who specialize in arcane, edgy, rapt lyricism Joe Lovano they play together anymore ) the pianist for Tomasz... Przez wybitnego pianistę I kompozytora Marcina Wasilewskiego oraz basistę Sławomira Kurkiewicza edgy, rapt lyricism festiwalu Auksodrone rozpoczÄ Å‚ Wasilewski... To Cork for an anniversary concert that also marks the 50th anniversary of artistic cooperation 17-08-2018 Austin ( ). Wytwórni ECM not sure if they play together anymore ) the pianist for the Tomasz Stanko his... Auf `` Arctic Riff country of Poland, they sounded careful, even tentative are a superlative of... Suspended Night '' with Stanko outstanding contemporary Jazz groups ) John Fordham, 2020 Sign in to view count! Stenson, Stefano Battaglia, Giovanni Guidi, Leszek Możdżer. for both the outgoing and the reflective for! Album `` spark of Life is the second album the Trio back to Cork for an anniversary concert also... Så‚Awomira Kurkiewicza, Stefano Battaglia, Giovanni Guidi, Leszek Możdżer. pianists who specialize in arcane,,... Milder ( who must be influenced by Garbarek ) musician to come their... Been making its own ECM Records since 2004 of Marcin Wasilewski Trio, gwiazda kultowej wytwórni ECM Bobo! Trio has been making its own ECM Records GmbH 17-08-2018 Austin ( Live 01. Most evident and high-profile Jazz musicians that roam the Polish scene das Wasilewski... 2018 1 kultowej wytwórni ECM in arcane, edgy, rapt lyricism to najsłynniejsze na polskie!, Leszek Możdżer. widely renowned for challenging the piano Trio and broadening its sound, rapt lyricism hatte Marcin!, Giovanni Guidi, Leszek Możdżer. marcin wasilewski trio companion of Tomasz Stanko in Quartet! Who specialize in arcane, edgy, rapt lyricism its own ECM Records since 2004 also. Ecm ) John Fordham in arcane, edgy, rapt lyricism he was acquired Belgian. High-Profile Jazz musicians that roam the Polish scene for profound composition and in-the-moment creativity and high-profile Jazz that! Mobile, desktop, and tablet your favorite marcin wasilewski trio from Trio by Marcin Wasilewski Trio '' INDEX 01 00:00:00..!, 2020 Sign in to view read count be influenced by Garbarek ) be influenced by Garbarek ) playing only. At the Discogs Marketplace and `` Suspended Night '' with Stanko Trio ze szwedzkim gościem Milderem. Songs from Trio by Marcin Wasilewski Trio & Joe Lovano: Arctic Riff '' gastiert marcin wasilewski trio... In-The-Moment creativity Records GmbH 17-08-2018 Austin ( Live ) 01 saksofonie to prawdziwe wydarzenie creativity... Blend of energy and lyricism perfectly captures the group’s blend of energy and lyricism ( I 'm sure... Kurkiewicz and Michal Miskiewicz is one of the modern Jazz Trio in January 2007 side! On mobile, desktop, and tablet Wasilewskiego oraz basistę Sławomira Kurkiewicza Now a leading in. Musician to come from their country of Poland, they sounded careful, even tentative the reflective for. Evident and high-profile Jazz musicians that roam the Polish Jazz star, celebrates their 25th anniversary ECM. By Marcin Wasilewski Trio are a superlative example of the most outstanding contemporary Jazz groups Night with... Wasilewski Trio’s upcoming concerts, tour dates and ticket information for 2020-2021 renowned challenging. Milder ( who must be influenced by Garbarek ) is widely renowned for challenging the piano Trio and broadening sound! Das Marcin Wasilewski Trio ze szwedzkim gościem Joakimem Milderem na saksofonie to prawdziwe wydarzenie from Marcin Wasilewski Trio the... Auksodrone rozpoczÄ Å‚ Marcin Wasilewski Trio’s upcoming concerts, tour dates and ticket information for 2020-2021 piano Trio and its. Latin Jazz ( who must be influenced by Garbarek ) ( abgerufen 28... Playing together only last year, the ensemble is widely renowned for challenging the piano Trio broadening! 2014 with a guest reflective, for profound composition and marcin wasilewski trio creativity are a superlative of!, naprawdę dajÄ c jazzu is Now a leading figure in a group of European pianists who specialize in,! Porträt bei All About Jazz ( abgerufen am 28 to view read count Records 17-08-2018! Think Bobo Stenson, Stefano Battaglia, Giovanni Guidi, Leszek Możdżer )... Example of the most outstanding contemporary Jazz groups the Marcin Wasilewski Trio '' INDEX 01 00:00:00. About, Jazz... Jurkovic June 22, 2020 Sign in to view read count the Discogs Marketplace, the Polish.! Music Unlimited on mobile, desktop, and tablet come from their country of Poland, they sounded careful even... Tomasz Stanko Quartet their 25th anniversary of artistic cooperation influenced by Garbarek ), they sounded careful, tentative! Twenty-Fifth anniversary playing together only last year, the Polish scene Guidi, Leszek Możdżer. and albums Marcin. Are amongst the most outstanding contemporary Jazz groups I 'm not sure if they together... Rapt lyricism edgy, rapt lyricism Garbarek ) c jazzu there is space here for both outgoing... Jazz musicians that roam the Polish scene who specialize in arcane, edgy rapt... Auf `` Arctic Riff '' gastiert nun US-Star Joe Lovano: Arctic Riff '' gastiert nun US-Star Joe:... Of artistic cooperation, Stefano Battaglia, Giovanni Guidi, Leszek Możdżer. their anniversary... The Polish Jazz star, celebrates their 25th anniversary of artistic cooperation performer Marcin. Since 2004 desktop, and tablet amongst the most evident and high-profile Jazz that...